版主: Agoni
昵称:暮念
等级:
Lv.74 
经验
5659
金币
50.19万
积分
1528
 发表于 2019-05-09 22:30  查看 2953 | 倒序浏览 |  下载地址
笑傲江湖
采用DVD9原盘压制,每一集都进行了反交错处理
视频尺寸:640x480,共40集,每集大小400M


※※※※※※※ 影片信息 ※※※※※※※

◎片  名 笑傲江湖
◎年  代 2001
◎国  家 中国大陆
◎类  别 古装/武侠
◎语  言 国语
◎字  幕 内嵌繁体中文字幕
◎文件格式 X264+AC3
◎视频尺寸 640 x480
◎文件大小 400M / 集
◎导  演 黄健中
◎制  片  人 张纪中
◎主  演    李亚鹏饰令狐冲
                     许晴饰任盈盈  
                     苗乙乙饰岳灵珊
                     巍子饰岳不群  
                     李解饰林平之

※※※※※※※ 资料信息 ※※※※※※※
  
       一位侠之大者的英雄 一首勘破世事的悲歌

       一段亦正亦邪的情缘 一个风雨飘摇的江湖。

       嵩山派掌门人左冷禅想吞并五岳剑派,杀了衡山派刘正风和魔教长老曲洋,两人死前,把《笑傲江湖》曲谱传给了华山派大弟子令狐冲;华山派掌门人岳不群之女岳灵珊,对林平之渐生爱意,令狐冲被自小爱慕的师妹岳灵珊疏远,外出散心时,和魔教圣姑任盈盈相识;盈盈舍身入少林换取易筋经挽救令狐冲的生命;向问天用令狐冲换出囚禁的魔教前教主任我行;令狐冲在狱中学会了吸星大法;他去救助恒山派,却成了全是尼姑的恒山派掌门人魔教教主东方不败修炼葵花宝典,引刀“自宫”而功力大增;令狐冲帮助任盈盈,任我行将东方不败杀死;任我行想灭掉五岳剑派,吞并武当少林,一统江湖;令狐冲对岳灵珊念念不忘,任盈盈在父亲和情郎之间无法取舍;魔教教主与正派和解,任我行暴毙,岳灵珊被林平之杀死;令狐冲终于明白了任盈盈对自己的深情,两人合奏《笑傲江湖》,结为伉俪。

       江湖永远是江湖,不可能有平息之日。有的只是刀光剑影,尔诈我虞,有的只是黑与白,正义与邪恶,虚伪与真诚紧紧纠缠,难以辩驳。

※※※※※※※ 参数信息 ※※※※※※※


  • F:笑傲江湖.40集全.国语中字.2001£CMCT暮雨潇潇笑傲江湖.E05.2001.DVDRip.x264.AC3-CMCT.mkv
  •   General
  •     Unique ID : 188038284576823478939343520076589903307 (0x8D76DB36331D61B2977EA632CBE72DCB)
  •     Complete name : F:笑傲江湖.40集全.国语中字.2001£CMCT暮雨潇潇笑傲江湖.E05.2001.DVDRip.x264.AC3-CMCT.mkv
  •     Format : Matroska
  •     Format version : Version 2
  •     File size : 399 MiB
  •     Duration : 45mn 34s
  •     Overall bit rate : 1 225 Kbps
  •     Encoded date : UTC 2012-07-15 09:06:40
  •     Writing application : mkvmerge v5.6.0 ('Kenya Kane') built on May 27 2012 16:44:04
  •     Writing library : libebml v1.2.3 + libmatroska v1.3.0
  •   Video #1
  •     ID : 1
  •     Format : AVC
  •     Format/Info : Advanced Video Codec
  •     Format profile : High@L4.1
  •     Format settings, CABAC : Yes
  •     Format settings, ReFrames : 5 frames
  •     Codec ID : V_MPEG4/ISO/AVC
  •     Duration : 45mn 34s
  •     Bit rate : 967 Kbps
  •     Width : 640 pixels
  •     Height : 480 pixels
  •     Display aspect ratio : 4:3
  •     Frame rate : 29.970 fps
  •     Color space : YUV
  •     Chroma subsampling : 4:2:0
  •     Bit depth : 8 bits
  •     Scan type : Progressive
  •     Bits/(Pixel*Frame) : 0.105
  •     Stream size : 308 MiB (77%)
  •     Title : Encoded.by.暮雨潇潇@CMCT
  •     Writing library : x264 core 125 r2200 999b753
  •     Encoding settings : cabac=1 / ref=5 / deblock=1:-3:-3 / analyse=0x3:0x133 / me=umh / subme=9 / psy=1 / psy_rd=1.10:0.15 / mixed_ref=1 / me_range=32 / chroma_me=1 / trellis=2 / 8x8dct=1 / cqm=0 / deadzone=21,11 / fast_pskip=0 / chroma_qp_offset=-3 / threads=3 / lookahead_threads=1 / sliced_threads=0 / nr=0 / decimate=1 / interlaced=0 / bluray_compat=0 / constrained_intra=0 / bframes=6 / b_pyramid=2 / b_adapt=2 / b_bias=0 / direct=1 / weightb=1 / open_gop=0 / weightp=2 / keyint=300 / keyint_min=27 / scenecut=40 / intra_refresh=0 / rc_lookahead=40 / rc=2pass / mbtree=1 / bitrate=967 / ratetol=1.0 / qcomp=0.60 / qpmin=10 / qpmax=51 / qpstep=4 / cplxblur=20.0 / qblur=0.5 / vbv_maxrate=50000 / vbv_bufsize=50000 / nal_hrd=none / ip_ratio=1.40 / aq=1:1.00
  •     Default : Yes
  •     Forced : No
  •   Audio #2
  •     ID : 2
  •     Format : AC-3
  •     Format/Info : Audio Coding 3
  •     Mode extension : CM (complete main)
  •     Codec ID : A_AC3
  •     Duration : 45mn 34s
  •     Bit rate mode : Constant
  •     Bit rate : 256 Kbps
  •     Channel(s) : 2 channels
  •     Channel positions : Front: L R
  •     Sampling rate : 48.0 KHz
  •     Bit depth : 16 bits
  •     Compression mode : Lossy
  •     Stream size : 83.5 MiB (21%)
  •     Title : AC3.2.0.256K
  •     Default : Yes
  •     Forced : No


※※※※※※※ 截图信息 ※※※※※※※
沙发: iamshy
昵称:东林小子
等级:
Lv.23 
经验
602
金币
234
积分
268
  发表于:2020-05-14 14:42
感谢分享,分享电影的都是好同志
板凳: jjdxl888
昵称:jjdxl
等级:
Lv.3 
经验
15
金币
16
积分
15
  发表于:2020-08-23 09:38
VIP免回复、免金币快速下载全站资源
地板: chenyuan
昵称:高进
等级:
Lv.5 
经验
37
金币
34
积分
62
  发表于:2020-09-03 13:03
感谢分享画质怎么样呢?
12楼 : honey230
昵称:乖乖郎
等级:
Lv.65 
经验
4380
金币
1956
积分
452
  发表于:2024-04-27 21:21
这个剧集很精彩,张纪中牛啊
13楼 : boynancy
昵称:boynancy
等级:
Lv.7 
经验
76
金币
34
积分
19
  发表于:2024-05-02 12:11
太棒了,可以可以看
7楼 : coolok
昵称:COOLOK
等级:
Lv.5 
经验
36
金币
17
积分
12
  发表于:2024-05-06 21:24
哇喔,正在找这个
7楼 : zhang129
昵称:你好129
等级:
Lv.53 
经验
2993
金币
215
积分
461
  发表于:2024-06-05 17:35
金坎坎坷坷看
8楼 : zsl496ak
昵称:啊啦蕾
等级:
Lv.40 
经验
1693
金币
123
积分
58
  发表于:2024-06-11 21:33
许晴演得很好,点赞
9楼 : gsy1314
昵称:一片石
等级:
Lv.105 
经验
1.13万
金币
1011
积分
1775
  发表于:2024-06-11 21:37
这部剧一定很贵吧
快速回帖