版主: maxiaolu
昵称:intosky
等级:
Lv.46 
经验
2288
金币
7.18万
积分
292
 发表于 2024-02-29 14:59  查看 9850 | 倒序浏览 |  下载地址
大明王朝1566
分享说明:
感谢zhchw_0908精心制作,目前能找到的最清晰版本。

该剧就不用介绍了,国内电视剧评分一直高居榜首,与《走向共和》并驾齐驱,收藏必备!原版AI修复,1080P/H265,2G左右,高清晰,无磨皮情况, 感觉老版影视还是1080P修复正好,试过4K修复,丢失细节过多,磨皮严重,没有原汁原味的特色了。




◎译  名 嘉靖与海瑞 / 大明王朝1566:嘉靖与海瑞
◎片  名 大明王朝1566
◎年  代 2007
◎产  地 中国大陆
◎类  别 剧情 / 历史
◎语  言 汉语普通话
◎上映日期 2007-01-08(中国大陆) / 2017-02-13(中国大陆重播)
◎IMDb评分 9.3/10 from 21204 users
◎IMDb链接 https://www.imdb.com/title/tt6424870
◎豆瓣评分 9.7/10 from 84559 users
◎豆瓣链接 https://movie.douban.com/subject/2210001/
◎集  数 46
◎片  长 42分钟
◎导  演 张黎 Li Zhang
◎编  剧 刘和平 Heping Liu
◎主  演 陈宝国 Baoguo Chen
      黄志忠 Zhi-zhong Huang
      倪大红 Dahong Ni
      王庆祥 Qingxiang Wang
      郭东文 Dongwen Guo
      郑玉 Yu Zheng
      张子健 Zijian Zhang
      闫妮 Ni Yan
      王雅捷 Yajie Wang
      祝希娟 Xijuan Zhu
      王劲松 Jinsong Wang
      赵立新 Lixin Zhao
      徐敏 Min Xu
      郭广平 Guangping Guo
      谭凯 Kai Tan
      肖竹 Zhu Xiao
      甘雨 Yu Gan
      张志坚 Zhijian Zhang
      刘毓滨 Yunbin Liu
      晋松 Song Jin
      徐光明 Guangming Xu
      刘立伟 Liwei Liu
      赵雍 Yong Zhao
      徐成峰 Chengfeng Xu
      王宇 Yu Wang
      陈之辉 Zhi-hui Chen
      杨涵斌 Hanbin Yang
      王戎 Rong Wang
      马小宁 Xiaoning Ma
      胡灵灵 Lingling Hu
      林海韵 Haiyun Lin
      三浦研一 Kenichi Miura
      穆泓屹 Hongyi Mu
      李婧 Jing Li
      浅野长英 Asano Nagahide


◎标  签 历史 | 国产电视剧 | 大明王朝 | 权谋 | 明朝 | 经典 | 电视剧 | 张黎

◎简  介  

  本剧讲述的是嘉靖与海瑞的故事。嘉靖三十九年,贪墨横行、民不聊生。奸臣严嵩(倪大红 饰)党羽密布、权倾朝野,清官海瑞(黄志忠 饰)不惧强权,敢于向腐朽封建的皇权发起挑战。皇帝朱厚熜(陈宝国 饰)练道修玄二十载,始终把控着大明朝的军政、经济大权。当时的中国经济发达,市井文化也算繁荣,但社会各阶层矛盾突出,国家大面积实施的土地兼并使千百万农民一夜之间失去了赖以生存的土地。严嵩的专权引起了地方各级官员的不满,“倒严”之声甚嚣尘上,从上至下、从里到外,从朝廷到地方官府,到处充斥着尔虞我诈、勾心斗角的血雨腥风。忠臣良将与乱臣贼子纷纷登上了当时的历史舞台。

  1. General
  2. Unique ID                      : 44080133405360116833823804766125161336 (0x2129865F0BF0F58EAADA6D672E0DFB78)
  3. Complete name                  : H:\[H265]大明王朝01.mkv
  4. Format                         : Matroska
  5. Format version                 : Version 4
  6. File size                      : 3.43 GiB
  7. Duration                       : 47 min 21 s
  8. Overall bit rate               : 10.4 Mb/s
  9. Writing application            : ShanaEncoder
  10. Writing library                : ShanaEncoder
  11. ErrorDetectionType             : Per level 1
  12. Video
  13. ID                             : 1
  14. Format                         : HEVC
  15. Format/Info                    : High Efficiency Video Coding
  16. Format profile                 : Main 10@L4.1@Main
  17. Codec ID                       : V_MPEGH/ISO/HEVC
  18. Duration                       : 47 min 21 s
  19. Bit rate                       : 9 972 kb/s
  20. Width                          : 1 920 pixels
  21. Height                         : 1 100 pixels
  22. Display aspect ratio           : 16:9
  23. Frame rate mode                : Constant
  24. Frame rate                     : 50.000 FPS
  25. Color space                    : YUV
  26. Chroma subsampling             : 4:2:0
  27. Bit depth                      : 10 bits
  28. Bits/(Pixel*Frame)             : 0.094
  29. Stream size                    : 3.30 GiB (96%)
  30. Writing library                : x265 3.4+33-5fa76b3fc:[Windows][GCC 5.4.0][64 bit] 10bit
  31. Encoding settings              : cpuid=1111039 / frame-threads=3 / numa-pools=12 / wpp / no-pmode / no-pme / no-psnr / no-ssim / log-level=2 / input-csp=1 / input-res=1920x1100 / interlace=0 / total-frames=0 / level-idc=0 / high-tier=1 / uhd-bd=0 / ref=3 / no-allow-non-conformance / no-repeat-headers / annexb / no-aud / no-hrd / info / hash=0 / no-temporal-layers / open-gop / min-keyint=50 / keyint=500 / gop-lookahead=0 / bframes=4 / b-adapt=0 / b-pyramid / bframe-bias=0 / rc-lookahead=15 / lookahead-slices=6 / scenecut=40 / hist-scenecut=0 / radl=0 / no-splice / no-intra-refresh / ctu=64 / min-cu-size=8 / no-rect / no-amp / max-tu-size=32 / tu-inter-depth=1 / tu-intra-depth=1 / limit-tu=0 / rdoq-level=0 / dynamic-rd=0.00 / no-ssim-rd / signhide / no-tskip / nr-intra=0 / nr-inter=0 / no-constrained-intra / strong-intra-smoothing / max-merge=2 / limit-refs=3 / no-limit-modes / me=1 / subme=2 / merange=57 / temporal-mvp / no-frame-dup / no-hme / weightp / no-weightb / no-analyze-src-pics / deblock=0:0 / sao / no-sao-non-deblock / rd=2 / selective-sao=4 / no-early-skip / rskip / fast-intra / no-tskip-fast / no-cu-lossless / no-b-intra / no-splitrd-skip / rdpenalty=0 / psy-rd=0.00 / psy-rdoq=0.00 / no-rd-refine / no-lossless / cbqpoffs=0 / crqpoffs=0 / rc=crf / crf=19.0 / qcomp=0.60 / qpstep=4 / stats-write=0 / stats-read=0 / ipratio=1.40 / pbratio=1.30 / aq-mode=2 / aq-strength=1.00 / cutree / zone-count=0 / no-strict-cbr / qg-size=32 / no-rc-grain / qpmax=69 / qpmin=0 / no-const-vbv / sar=1 / overscan=0 / videoformat=5 / range=0 / colorprim=2 / transfer=2 / colormatrix=2 / chromaloc=0 / display-window=0 / cll=0,0 / min-luma=0 / max-luma=1023 / log2-max-poc-lsb=8 / vui-timing-info / vui-hrd-info / slices=1 / no-opt-qp-pps / no-opt-ref-list-length-pps / no-multi-pass-opt-rps / scenecut-bias=0.05 / hist-threshold=0.03 / no-opt-cu-delta-qp / no-aq-motion / no-hdr10 / no-hdr10-opt / no-dhdr10-opt / no-idr-recovery-sei / analysis-reuse-level=0 / analysis-save-reuse-level=0 / analysis-load-reuse-level=0 / scale-factor=0 / refine-intra=0 / refine-inter=0 / refine-mv=1 / refine-ctu-distortion=0 / no-limit-sao / ctu-info=0 / no-lowpass-dct / refine-analysis-type=0 / copy-pic=1 / max-ausize-factor=1.0 / no-dynamic-refine / no-single-sei / no-hevc-aq / no-svt / no-field / qp-adaptation-range=1.00 / no-scenecut-aware-qpconformance-window-offsets / right=0 / bottom=0 / decoder-max-rate=0 / no-vbv-live-multi-pass
  32. Default                        : Yes
  33. Forced                         : No
  34. Color range                    : Limited
  35. Audio
  36. ID                             : 2
  37. Format                         : AC-3
  38. Format/Info                    : Audio Coding 3
  39. Commercial name                : Dolby Digital
  40. Codec ID                       : A_AC3
  41. Duration                       : 47 min 21 s
  42. Bit rate mode                  : Constant
  43. Bit rate                       : 192 kb/s
  44. Channel(s)                     : 2 channels
  45. Channel layout                 : L R
  46. Sampling rate                  : 48.0 kHz
  47. Frame rate                     : 31.250 FPS (1536 SPF)
  48. Bit depth                      : 32 bits
  49. Compression mode               : Lossy
  50. Stream size                    : 65.0 MiB (2%)
  51. Service kind                   : Complete Main
  52. Default                        : Yes
  53. Forced                         : No
复制代码









沙发: zhuogh
昵称:老卓
等级:
Lv.94 
经验
9145
金币
7343
积分
631
  发表于:2023-01-27 15:55
多谢楼主分享
板凳: zfy999
昵称:高清爱
等级:
Lv.132 
经验
1.77万
金币
8915
积分
2387
  发表于:2023-01-27 15:56
谢谢楼主分享!
地板: jscpc
昵称:红河四块五
等级:
Lv.119 
经验
1.45万
金币
7294
积分
1752
  发表于:2023-01-27 15:56
支持一下。感谢分享。
750楼 : will1454
昵称:1454990332
等级:
Lv.17 
经验
324
金币
1
积分
49
  发表于:2024-04-26 00:53
已经看过一遍了
751楼 : laoniao98
昵称:老鸟不飞
等级:
Lv.68 
经验
4790
金币
597
积分
660
  发表于:2024-04-26 01:44
多谢楼主分享
752楼 : UltraAce
昵称:寒霜飓风
等级:
Lv.80 
经验
6571
金币
3144
积分
796
  发表于:2024-04-26 03:21
多谢楼主的分享
753楼 : wz0914
昵称:天涯沦落人
等级:
Lv.59 
经验
3670
金币
1763
积分
447
  发表于:2024-04-26 08:59
很好很强大,值得收藏!
754楼 : DXXH123
昵称:冬歇西湖
等级:
Lv.36 
经验
1431
金币
680
积分
183
  发表于:2024-04-26 09:03
感谢楼主分享,不知道售价多少呢?
755楼 : liulixing
昵称:琉璃星云
等级:
Lv.6 
经验
45
金币
21
积分
14
  发表于:2024-04-26 10:18
这个资源很好。
756楼 : zzw629
昵称:海陵笑笑生
等级:
Lv.96 
经验
9570
金币
781
积分
1442
  发表于:2024-04-26 10:21
谢谢楼主分享
757楼 : zwangyuan
昵称:二七棒棒糖
等级:
Lv.22 
经验
571
金币
252
积分
73
  发表于:2024-04-26 10:45
感谢楼主分享!
758楼 : shl2007cs
昵称:SongHL
等级:
Lv.25 
经验
709
金币
215
积分
86
  发表于:2024-04-26 11:11
谢谢楼主分享经典资源
759楼 : jacky110
昵称:思空无尘
等级:
Lv.146 
经验
2.17万
金币
1.02万
积分
3362
  发表于:2024-04-26 11:21
谢谢楼主分享
760楼 : a39030008
昵称:易木头
等级:
Lv.5 
经验
35
金币
17
积分
12
  发表于:2024-04-26 16:03
大明王朝,非常的牛
761楼 : ywts6757
昵称:ywts6757
等级:
Lv.28 
经验
852
金币
268
积分
77
  发表于:2024-04-26 20:39
种子资源还是云盘资源
762楼 : yr8556294
昵称:yr8556294
等级:
Lv.7 
经验
61
金币
8
积分
16
  发表于:2024-04-26 21:04
感谢楼主分享
763楼 : cang111
昵称:shoucangjia
等级:
Lv.9 
经验
108
金币
8
积分
23
  发表于:2024-04-26 21:23
谢谢🙏分享影片
764楼 : Mave2025
昵称:Maverick2024
等级:
Lv.5 
经验
40
金币
19
积分
13
  发表于:2024-04-27 00:33
感谢楼主分享  Thank you very much.
765楼 : yuri6fu
昵称:潜龙
等级:
Lv.90 
经验
8354
金币
472
积分
422
  发表于:2024-04-27 00:35
多谢楼主分享
766楼 : Mave2025
昵称:Maverick2024
等级:
Lv.5 
经验
40
金币
19
积分
13
  发表于:2024-04-27 00:35
感谢楼主分享
快速回帖