版主: zhchw0908
昵称:朱蛛蛛
等级:
Lv.86 
经验
7708
金币
6.00万
积分
975
 发表于 2023-07-24 01:55  查看 3994 | 倒序浏览 |  下载地址
清帝三部曲
制作说明:
清帝三部曲:《康熙王朝》、《雍正王朝》和《乾隆王朝》,前两部极其经典,豆瓣评分均在9.2以上。视频均为原版AI修复,1080P/H265,3G左右,高清晰,无磨皮情况, 试过4K修复,丢失细节过多,磨皮严重,没有原汁原味的特色了,感觉还是1080P修复正好。


◎译  名 Kang Xi Kingdom / 康熙大帝 / 康熙帝国
◎片  名 康熙王朝
◎年  代 2001
◎产  地 中国大陆
◎类  别 剧情 / 爱情 / 传记 / 历史
◎语  言 汉语普通话
◎上映日期 2001-12-03(中国大陆)
◎IMDb评分 8.1/10 from 236 users
◎IMDb链接 https://www.imdb.com/title/tt0331137
◎豆瓣评分 9.2/10 from 139512 users
◎豆瓣链接 https://movie.douban.com/subject/1830590/
◎集  数 46
◎片  长 45分钟
◎导  演 陈家林 Jialin Chen / 刘大印 Dayin Liu
◎编  剧 朱苏进 Sujin Zhu / 胡建新 Jianxin Hu / 二月河 Er Yue He
◎主  演 斯琴高娃 Stchingowa
      陈道明 Daoming Chen
      高兰村 Lancun Gao
      茹萍 Ping Ru
      李建群 Jianqun Li
      朱晏 Yan Zhu
      薛中锐 Zhongrui Xue
      李楠 Nan Li
      安亚平 Yaping An
      宫雪花 Xuehua Gong
      胡天鸽 Tiange Hu
      李晨涛 Chentao Li
      刘钧 Jun Liu
      博弘 Hong Bo
      廖京生 Jingsheng Liao
      李洪涛 Hongtao Li
      高田昊 Tianhao Gao
      万中良 Zhongliang Wan
      朱艺丹 Yidan Zhu
      姚长安 Chang'an Yao
      宋来运 Laiyun Song
      张光正 Guangzheng Zhang
      曹永祥 Yongxiang Cao
      马小矛 Xiaomao Ma
      陈斌 Bin Chen
      苏廷石 Tingshi Su
      刘大印 Dayin Liu
      侯永生 Yongsheng Hou
      刘毓滨 Yunbin Liu
      卢勇 Yong Lu
      汤加丽 Jiali Tang
      高宏亮 Hongliang Gao
      李明 Ming Li
      李如平 Ruping Li
      王也天 Yetian Wang
      陈大中 Dazhong Chen
      郝铁男 Tienan Hao
      白杨 Yang Bai
      崔岱 Dai Cui
      赵凯 Kai Zhao
      薛俨 Yan Xue
      马捷 Jie Ma
      李小雷
      刘长生 Changsheng Liu
      尚言生 Yansheng Shang
      关德俊
      陈韦辰 Weichen Chen
      刘挺 Ting Liu
      胡珊珊
      赵景文
      马子俊 Zijun Ma


◎标  签 陈道明 | 历史 | 电视剧 | 康熙王朝 | 国产电视剧 | 经典 | 斯琴高娃 | 大陆

◎简  介  

  清朝顺治十八年,天花在皇宫蔓延,顺治帝的董爱妃因此一命呜呼,顺治因痛不欲生而决意出家。此时,清帝国充满了内隐外忧。危急之际,孝庄太后(斯琴高娃 饰)当机立断,将得了天花初愈的年仅八岁的皇子玄烨力推为皇室继承人,康熙皇帝登基了。康熙(陈道明 饰)即位以后,手握兵权的鳌拜以权相逼,孝庄太后为了大局也只好暂时放权让鳌拜亲政。鳌拜的野心并不止亲政,他最终目标是图谋改朝换代,少年康熙机智过人,先以终日和一班少年嬉戏放松鳌拜警惕,随后邀约鳌拜进宫而乘机将其软禁,终于为大清除了一大隐患,保住了江山。随后,康熙更是励精图治,向隐忧以久的三藩开刀,开始一段除乱安内的康熙之治!

General
Unique ID                      : 296588202634413361832559997510711002868 (0xDF20CF6020FF8A7EE64C492D9EA846F4)
Complete name                  : H:\[H265]康熙王朝01.mkv
Format                         : Matroska
Format version                 : Version 4
File size                      : 2.45 GiB
Duration                       : 45 min 44 s
Overall bit rate               : 7 663 kb/s
Writing application            : ShanaEncoder
Writing library                : ShanaEncoder
Video
ID                             : 1
Format                         : HEVC
Format/Info                    : High Efficiency Video Coding
Format profile                 : Main 10@L4.1@Main
Codec ID                       : V_MPEGH/ISO/HEVC
Duration                       : 45 min 44 s
Bit rate                       : 7 126 kb/s
Width                          : 1 444 pixels
Height                         : 1 082 pixels
Display aspect ratio           : 4:3
Frame rate mode                : Constant
Frame rate                     : 50.000 FPS
Color space                    : YUV
Chroma subsampling             : 4:2:0
Bit depth                      : 10 bits
Bits/(Pixel*Frame)             : 0.091
Stream size                    : 2.28 GiB (93%)
Writing library                : x265 3.4+33-5fa76b3fc:[Windows][GCC 5.4.0][64 bit] 10bit
Forced                         : No
Color range                    : Limited
Audio
ID                             : 2
Format                         : AC-3
Format/Info                    : Audio Coding 3
Commercial name                : Dolby Digital
Codec ID                       : A_AC3
Duration                       : 45 min 44 s
Bit rate mode                  : Constant
Bit rate                       : 384 kb/s
Channel(s)                     : 6 channels
Channel layout                 : L R C LFE Ls Rs
Sampling rate                  : 48.0 kHz
Frame rate                     : 31.250 FPS (1536 SPF)
Bit depth                      : 32 bits
Compression mode               : Lossy
Stream size                    : 126 MiB (5%)
Service kind                   : Complete Main
Default                        : Yes
Forced                         : No
复制代码



◎片  名 雍正王朝
◎年  代 1997
◎产  地 中国大陆
◎类  别 剧情 / 爱情 / 历史
◎语  言 汉语普通话
◎上映日期 1999-01-03(中国大陆)
◎IMDb评分 8.7/10 from 17208 users
◎IMDb链接 https://www.imdb.com/title/tt0279520
◎豆瓣评分 9.3/10 from 82429 users
◎豆瓣链接 https://movie.douban.com/subject/1830575/
◎集  数 44
◎片  长 42分钟
◎导  演 胡玫 Mei Hu
◎编  剧 刘和平 Heping Liu / 二月河 Er Yue He
◎主  演 唐国强 Guoqiang Tang
      焦晃 Huang Jiao
      王绘春 Huichun Wang
      杜雨露 Yulu Du
      徐敏 Min Xu
      王辉 Hui Wang
      徐祖明 Zuming Xu
      贾致刚 Zhigang Jia
      李定保 Dingbao Li
      杜志国 Zhiguo Du
      常林 LinChang
      贺生伟 Shengwei He
      蔡鸿翔 Hongxiang Cai
      赵毅 Yi Zhao
      李颖 Ying Li
      张彦春 Yanchun Zhang
      夏和平 Heping Xia
      苗皓钧 Haizhong Miao
      刘魁 Kui Liu
      壮丽 Li Zhuang
      施建岚 Jianlan Shi
      杨昊飞 Haofei Yang
      姜光宇 Guangyu Jiang
      韩熙明 Ximing Han
      袁世龙 SHilong Yuan
      廖丙炎 Bingyan Liao
      刘杰 Jie Liu
      万弘杰 Hongjie Wan
      胡荣华 Ronghua Hu
      陈志刚 Zhigang Chen
      赵刚 Gang Zhao
      贾兆冀 Zhaoji Jia
      张日辉 Rihui Zhang
      刘勇
      蒋国印 Guoyin Jiang
      陈凤桐 Fengtong Chen
      黄永铸 Yongzhu Huang
      魏德山 Deshan Wei
      许东 Dong Xu
      赵文亮 Wenliang Zhao
      钱学格 Xuege Qian
      任宝成 Baocheng Ren
      刘伟
      张丹丹 Dandan Zhang
      李国立
      黄湘阳 Xiangyang Huang
      黄子千 Ziqian Huang
      王安秋 Anqiu Wang
      孙万清 Wanqing Sun
      康垂家 Cuijia Kang
      李桂生 Guisheng Li
      李可 Ke Li
      盛才新 Caixin Sheng
      尼格木图 Ni ge tu mu
      张元昌 Yuanchang Zhang
      田松 Song Tian
      武晔 Ye Wu
      杨惠礼 Huili Yang
      郑建民 Jianmin Zheng
      黄忠 Zhong Huang
      金风 Feng Jin
      刘晋 Jin Liu
      何金龙 Jinlong He
      陈昱 Yu Chen
      侯涛 Tao Hou
      李潭 Tan Li
      党永德 Yongde Dang
      李雨农 Yunong Li
      龚航宇 Hangyu Gong
      姜涛 Tao Jiang
      赵冬柏 Dongbai Zhao
      张新科 Xinke Zhang
      曹春萱 Chunxuan Cao
      汪丽虹 Lihong Wang


◎标  签 历史 | 雍正王朝 | 国产电视剧 | 历史剧 | 经典 | 政治 | 大陆 | 中国

◎简  介  

  公元1722年康熙驾崩,素有“冷面王”之称的四阿哥胤祯(唐国强 饰)继位 。胤禛虽然并不是朝野所看好的皇位人选,却是康熙亲自选择的雍正皇帝。他在江南“煸动”灾民闹事,在城隍庙摆鸿门宴掏走了地方官和富商二百多万两银子筹款赈灾;他追讨国库欠款,逼得老臣上吊;刑部冤狱案,他隔岸观火,让八阿哥和太子斗得两败俱伤;百官行贿案,他借年羹尧之手血洗江夏镇,使得太子再度被废。
雍正当政后出现的山西诺敏案、科场舞弊案中,雍正杀了一批牵扯进去的朝廷中枢重臣。西北用兵、数省天灾,急需军费和赈灾,抄贪官污吏的家财,解决急需。而后的“摊丁入亩、火耗归公”、“士绅一体当差、一体纳粮”、“河南罢考案”、“铁帽子亲王大殿发难逼宫”、“含泪杀亲子”等一系列旨在推行新政、抑制官绅敛财和宫廷内部党争、挤压的历史事件贯穿雍正的一生和雍正王朝......
General
Unique ID                      : 36850114148792401540871071376099620411 (0x1BB912E67A8717390809FAD8B1FDB63B)
Complete name                  : H:\[H265]雍正王朝01.mkv
Format                         : Matroska
Format version                 : Version 4
File size                      : 2.39 GiB
Duration                       : 45 min 23 s
Overall bit rate               : 7 544 kb/s
Movie name                     : 50.孝感动天开塔门 功德圆满永升仙
Encoded date                   : UTC 2022-04-02 00:03:51
Writing application            : mkvmerge v64.0.0 ('Willows') 64-bit
Writing library                : libebml v1.4.2 + libmatroska v1.6.4
Attachments                    : cronospro.otf / hwkaiti.ttf
Video
ID                             : 1
Format                         : HEVC
Format/Info                    : High Efficiency Video Coding
Format profile                 : Main 10@L4.1@Main
Codec ID                       : V_MPEGH/ISO/HEVC
Duration                       : 45 min 23 s
Bit rate                       : 7 118 kb/s
Width                          : 1 444 pixels
Height                         : 1 082 pixels
Display aspect ratio           : 4:3
Frame rate mode                : Constant
Frame rate                     : 50.000 FPS
Color space                    : YUV
Chroma subsampling             : 4:2:0
Bit depth                      : 10 bits
Bits/(Pixel*Frame)             : 0.091
Stream size                    : 2.26 GiB (94%)
Writing library                : x265 3.4+33-5fa76b3fc:[Windows][GCC 5.4.0][64 bit] 10bit
Default                        : Yes
Forced                         : No
Color range                    : Limited
Audio
ID                             : 2
Format                         : AC-3
Format/Info                    : Audio Coding 3
Commercial name                : Dolby Digital
Codec ID                       : A_AC3
Duration                       : 45 min 23 s
Bit rate mode                  : Constant
Bit rate                       : 384 kb/s
Channel(s)                     : 6 channels
Channel layout                 : L R C LFE Ls Rs
Sampling rate                  : 48.0 kHz
Frame rate                     : 31.250 FPS (1536 SPF)
Bit depth                      : 32 bits
Compression mode               : Lossy
Stream size                    : 125 MiB (5%)
Service kind                   : Complete Main
Default                        : Yes
Forced                         : No
Text
ID                             : 3
Format                         : UTF-8
Codec ID                       : S_TEXT/UTF8
Codec ID/Info                  : UTF-8 Plain Text
Duration                       : 40 min 49 s
Bit rate                       : 50 b/s
Frame rate                     : 0.274 FPS
Count of elements              : 672
Stream size                    : 15.1 KiB (0%)
Title                          : 简体SRT
Language                       : Chinese
Default                        : No
Forced                         : No
复制代码



◎片  名 乾隆王朝
◎年  代 2002
◎产  地 中国内地
◎类  别 剧情/传记/历史
◎语  言 汉语普通话
◎上映日期 2003-01-23
◎豆瓣评分 7.8/10 from 5,484 users
◎豆瓣链接 https://movie.douban.com/subject/2988827/
◎集  数 40
◎导  演 叶大鹰 Ye Daying
◎主  演 焦晃  Jiao Huang
       陈锐 Rui Chen
       左小青 Zuo Xiao Qing
                 贾一平 Jia Yi Ping
                 卢燕  Lu Yan
                 咏梅  Yong Mei
                 沙溢  Sha Yi
                 王辉  Wang Hui
                 梁伟  Liang Wei
                 李芸  Li Yun
                 张澜澜  Zhang Lan Lan
                 钱学格  Qian Xue Ge
                 李心敏  LI Xin Min
                 刘伟明  Liu Wei Ming
                 苏茂  Su Mao
                 郑玉  Zheng Yu
                 修宗迪  XiuZong Di
                 赵文亮  Zhao Wen Liang
                 周传一  Zhou Chuan Yi
                 李长江  Li Chang Jiang

◎简  介

  乾隆王朝中期,名将阿桂率军平定准葛尔之乱,在甘肃遭到连月大雨,大军受困,寸步难行。阿桂帐下绿营书办和珅(陈锐 饰)回京面见皇上求助。适值此时,甘肃巡抚王亶望(修宗迪 饰)上报旱情,引起乾隆(焦晃 饰)疑心,遂擢派和珅调查。和珅凭借机敏与干练搬倒贪官王亶望,倍得乾隆赏识,从此平步青云,最终成为朝廷不可或缺的重臣。
  大清帝国虽则空前鼎盛,却也渐渐显露颓相。上有乾隆好大喜功,挥霍无度;下有无数贪墨官员欺君罔上,鱼肉乡民,致使国库渐次亏空。和珅在各方实力的夹击下闪转腾挪,周旋往复,殚精竭虑替皇上经营着这个羸弱不堪的庞大帝国……

General
Unique ID                      : 128999269457142697067067646866190950701 (0x610C5B07A1045EB6F5FCA8EC0C46E12D)
Complete name                  : H:\[H265]乾隆王朝01.mkv
Format                         : Matroska
Format version                 : Version 4
File size                      : 2.30 GiB
Duration                       : 46 min 36 s
Overall bit rate               : 7 072 kb/s
Writing application            : ShanaEncoder
Writing library                : ShanaEncoder
Video
ID                             : 1
Format                         : HEVC
Format/Info                    : High Efficiency Video Coding
Format profile                 : Main 10@L4.1@Main
Codec ID                       : V_MPEGH/ISO/HEVC
Duration                       : 46 min 36 s
Bit rate                       : 6 739 kb/s
Width                          : 1 440 pixels
Height                         : 1 080 pixels
Display aspect ratio           : 4:3
Frame rate mode                : Constant
Frame rate                     : 59.940 (60000/1001) FPS
Color space                    : YUV
Chroma subsampling             : 4:2:0
Bit depth                      : 10 bits
Bits/(Pixel*Frame)             : 0.072
Stream size                    : 2.19 GiB (95%)
Writing library                : x265 3.4+33-5fa76b3fc:[Windows][GCC 5.4.0][64 bit] 10bit
Default                        : Yes
Forced                         : No
Color range                    : Limited
Audio
ID                             : 2
Format                         : AC-3
Format/Info                    : Audio Coding 3
Commercial name                : Dolby Digital
Format settings                : Dolby Surround
Codec ID                       : A_AC3
Duration                       : 46 min 36 s
Bit rate mode                  : Constant
Bit rate                       : 192 kb/s
Channel(s)                     : 2 channels
Channel layout                 : L R
Sampling rate                  : 48.0 kHz
Frame rate                     : 31.250 FPS (1536 SPF)
Bit depth                      : 32 bits
Compression mode               : Lossy
Stream size                    : 64.0 MiB (3%)
Service kind                   : Complete Main
Default                        : Yes
Forced                         : No
沙发: lorna
昵称:lorna_zy
等级:
Lv.148 
经验
2.23万
金币
5750
积分
3421
  发表于:2023-07-22 12:36
感谢楼主分享好资源
 评论区:Posted @ 2023-07-22 12:36:00 lorna_zy   全部评论(1)
 1# 
hhu10294 于 2024-01-28 08:31 评论说:  回复  举报
这个剧真不错
板凳: fangbaoyu
昵称:方宝玉
等级:
Lv.36 
经验
1411
金币
13
积分
182
  发表于:2023-07-22 12:53
怎么上车~~~带带我!!
地板: zmd123456
昵称:zmd123456
等级:
Lv.140 
经验
1.99万
金币
6194
积分
3051
  发表于:2023-07-22 12:53
谢谢楼主分享
4楼 : jfsxjfc
昵称:jfsxjfc
等级:
Lv.131 
经验
1.75万
金币
2954
积分
2346
  发表于:2023-07-22 13:06
谢谢分享经典资源
5楼 : junney
昵称:zhaojunney
等级:
Lv.103 
经验
1.09万
金币
2119
积分
872
  发表于:2023-07-22 13:29
谢谢分享经典资源
177楼 : tj145021
昵称:木瓜俊
等级:
Lv.5 
经验
40
金币
19
积分
13
  发表于:2024-04-09 17:12
找了很久的资源,非常感谢,希望有用
178楼 : tj145021
昵称:木瓜俊
等级:
Lv.5 
经验
40
金币
19
积分
13
  发表于:2024-04-09 17:13
还要金币啊   能免费给一个吗?
179楼 : zg12345
昵称:周游列国
等级:
Lv.52 
经验
2830
金币
113
积分
452
  发表于:2024-04-10 08:08
感谢楼主分享
180楼 : kmlaobo
昵称:laobo
等级:
Lv.5 
经验
35
金币
17
积分
12
  发表于:2024-04-10 14:54
好资源,感谢楼主!!!!
181楼 : fine1412
昵称:左岸
等级:
Lv.142 
经验
2.05万
金币
8539
积分
2298
  发表于:2024-04-11 13:31
经典之作!!!太好了
182楼 : tjqinyue
昵称:摩多
等级:
Lv.7 
经验
76
金币
26
积分
17
  发表于:2024-04-12 21:17
这个剧真不错,顶
183楼 : a2108208
昵称:a335472339是我
等级:
Lv.5 
经验
35
金币
17
积分
12
  发表于:2024-04-15 07:06
衣带渐宽终不悔,为伊消得人憔悴。
184楼 : l35554826
昵称:热心网友007
等级:
Lv.55 
经验
3162
金币
910
积分
492
  发表于:2024-04-15 07:18
男儿有泪不轻弹,只是未到伤心处。
185楼 : weikoo
昵称:逍遥龙
等级:
Lv.139 
经验
1.97万
金币
1516
积分
3343
  发表于:2024-04-15 07:22
谢谢楼主分享!下来欣赏一下谢谢!
186楼 : xtabig
昵称:光影魔术师
等级:
Lv.32 
经验
1136
金币
307
积分
182
  发表于:2024-04-15 07:28
这个有意思啊,谢谢分享
187楼 : tjzyl
昵称:玉楼
等级:
Lv.128 
经验
1.68万
金币
206
积分
2556
  发表于:2024-04-15 07:30
谢谢你的分享
188楼 : cs3693622
昵称:genzi
等级:
Lv.6 
经验
50
金币
24
积分
14
  发表于:2024-04-16 22:04
感谢楼主分享
189楼 : licaibo
昵称:聚散两相宜
等级:
Lv.150 
经验
2.28万
金币
3696
积分
661
  发表于:2024-04-16 22:12
感谢楼主分享!!!!!
190楼 : tangzl
昵称:tangzl
等级:
Lv.17 
经验
331
金币
145
积分
51
  发表于:2024-04-17 11:21
谢谢楼主分享!
191楼 : testpop1
昵称:testpop1
等级:
Lv.5 
经验
35
金币
17
积分
12
  发表于:2024-04-17 16:39
经典才有价值
快速回帖