版主: zhchw0908
昵称:朱蛛蛛
等级:
Lv.89 
经验
8118
金币
6.58万
积分
1023
 发表于 2024-06-28 20:33  查看 5457 | 倒序浏览 |  下载地址
大秦帝国四部曲




◎片  名 大秦帝国之裂变/新大秦帝国(台)/大秦帝国:裂变/大秦帝国1:黑色裂变
◎译  名 Qin Empire S01
◎年  代 2009
◎产  地 中国大陆
◎类  别 历史/战争
◎语  言 汉语普通话
◎上映日期 2009-12-18(中国大陆)
◎IMDb评分  8.3/10 from 36 users
◎IMDb链接  https://www.imdb.com/title/tt5293462/
◎豆瓣评分 9.3/10 from 69,368 users
◎豆瓣链接 https://movie.douban.com/subject/3114220/
◎集  数 51
◎片  长 45分钟
◎导  演 黄健中 Jian-zhong Huang / 延艺 Yi Yan
◎主  演 侯勇 Yong Hou
      王志飞 Zhifei Wang
      卢勇 Yong Lu
      吕中 Zhong Lü
      高圆圆 Yuanyuan Gao
      李立群 Lichun Lee
      许还山 Huanshan Xu
      齐芳 Fang Qi
      尤勇 Yong You
      杜雨露 Yulu Du
      王辉 Hui Wang
      刘乃艺 Naiyi Liu
      孙飞虎 Feihu Sun
      卢映 Ying Lu
      毛乐 Mao Le
      苑冉 Ran Yuan
      仇永力 Yongli Qiu
      于洋 Yang Yu
      午马 Wu Ma
      郭常辉 Changhui Guo
      季晨 Chen Ji
      侯祥玲 Xiang-Ling Hou
      刘牧 Mu Liu
      陈之辉 Zhi-hui Chen
      董祁明 Qiming Dong
      卢超凡 Chaofan Lu
      姜华 Hua Jiang
      钱卫东 Weidong Qian
      赵冬柏 Dongbai Zhao
      周玉华 Yuhua Zhou
      王迎奇 Yinqi Wang
      李世德 Shide Li
      金明 Ming Jin
      冯鹏飞 Pengfei Feng
      任伟 Wei Ren
      焦长道 Changdao Jiao
      江化霖 Hualin Jiang
      李卓霖 Zhuolin Li
      任希鸿 Xihong Ren
      刘冰峰 Bingfeng Liu
      李海鸽 Haige Li
      冯峥 Zheng Feng
      夏露 Lu Xia
      徐玉庭 Yuting Xu
      孙蛟龙 Jiaolong Sun
      赵伊 Yi Zhao

◎简  介

  两千七百年前,华夏民族进入了凡有血气、皆有争心的大争之世,谦谦上古贵族君子风的春秋时代落下帷幕,攻掠征伐、尸横遍野的战国时代隆重登场。时为西北边陲蕞尔小国的秦国饱受六国摧残挞伐,而今已在灭国边缘。秦献公身死战场,年纪轻轻的仲公子渠梁(侯勇 饰)在危难时刻即位,他深藏屈辱,在六国夹攻下苟延残喘,发誓变法崛起。秦孝公渠梁广招天下贤能之士,天不亡秦,曾在魏国并不得志的卫鞅(王志飞 饰)辗转来到秦国,并凭借一身才学和对天下局势的清醒认识而得到秦孝公重用。卫鞅在秦国掀起了影响深远且饱受争议的变法,一代强秦由此崛起……
  本片根据孙皓晖的同名历史小说的第一部改编。

◎获奖情况  
     
      第25届中国电视金鹰奖“优秀电视剧奖”“最佳美术奖”
      第28届飞天奖长篇电视剧二等奖

General
Unique ID                      : 238226483403203755271321626882669974489 (0xB338C0758567C364B2F70DAA837E93D9)
Complete name                  : E:\迅雷下载\The.Qin.Empire.E01.2009.Netflix.WEB-DL.1080p.x264.DDP-HDCTV.mkv
Format                         : Matroska
Format version                 : Version 4
File size                      : 2.47 GiB
Duration                       : 47 min 0 s
Overall bit rate mode          : Variable
Overall bit rate               : 7 532 kb/s
Encoded date                   : UTC 2021-12-30 17:59:23
Writing application            : mkvmerge v61.0.0 ('So') 64-bit
Writing library                : libebml v1.4.2 + libmatroska v1.6.4
Video
ID                             : 1
Format                         : AVC
Format/Info                    : Advanced Video Codec
Format profile                 : Main@L4
Format settings                : CABAC / 3 Ref Frames
Format settings, CABAC         : Yes
Format settings, Reference fra : 3 frames
Codec ID                       : V_MPEG4/ISO/AVC
Duration                       : 46 min 59 s
Bit rate mode                  : Variable
Bit rate                       : 7 500 kb/s
Maximum bit rate               : 11.2 Mb/s
Width                          : 1 920 pixels
Height                         : 1 080 pixels
Display aspect ratio           : 16:9
Frame rate mode                : Constant
Frame rate                     : 25.000 FPS
Color space                    : YUV
Chroma subsampling             : 4:2:0
Bit depth                      : 8 bits
Scan type                      : Progressive
Bits/(Pixel*Frame)             : 0.145
Stream size                    : 2.43 GiB (98%)
Writing library                : x264 core 148 r2727 7d026e8
Encoding settings              : cabac=1 / ref=3 / deblock=1:0:0 / analyse=0x1:0x111 / me=umh / subme=10 / psy=1 / psy_rd=1.00:0.00 / mixed_ref=1 / me_range=24 / chroma_me=1 / trellis=2 / 8x8dct=0 / cqm=0 / deadzone=21,11 / fast_pskip=1 / chroma_qp_offset=-2 / threads=6 / lookahead_threads=1 / sliced_threads=0 / nr=0 / decimate=1 / interlaced=0 / bluray_compat=0 / stitchable=1 / constrained_intra=0 / bframes=2 / b_pyramid=0 / b_adapt=2 / b_bias=0 / direct=3 / weightb=1 / open_gop=0 / weightp=2 / keyint=250 / keyint_min=25 / scenecut=0 / intra_refresh=0 / rc_lookahead=50 / rc=2pass / mbtree=1 / bitrate=7500 / ratetol=1.0 / qcomp=0.50 / qpmin=6 / qpmax=51 / qpstep=4 / cplxblur=20.0 / qblur=0.5 / vbv_maxrate=11250 / vbv_bufsize=15000 / nal_hrd=vbr / filler=0 / ip_ratio=1.40 / aq=1:1.00
Default                        : Yes
Forced                         : No
Audio
ID                             : 2
Format                         : E-AC-3
Format/Info                    : Enhanced AC-3
Commercial name                : Dolby Digital Plus
Codec ID                       : A_EAC3
Duration                       : 47 min 0 s
Bit rate mode                  : Constant
Bit rate                       : 128 kb/s
Channel(s)                     : 2 channels
Channel layout                 : L R
Sampling rate                  : 48.0 kHz
Frame rate                     : 31.250 FPS (1536 SPF)
Compression mode               : Lossy
Stream size                    : 43.0 MiB (2%)
Title                          : 国语
Language                       : Chinese
Service kind                   : Complete Main
Default                        : Yes
Forced                         : No
Text #1
ID                             : 3
Format                         : UTF-8
Codec ID                       : S_TEXT/UTF8
Codec ID/Info                  : UTF-8 Plain Text
Duration                       : 45 min 29 s
Bit rate                       : 42 b/s
Frame rate                     : 0.129 FPS
Count of elements              : 352
Stream size                    : 14.1 KiB (0%)
Title                          : English
Language                       : English
Default                        : Yes
Forced                         : No
Text #2
ID                             : 4
Format                         : UTF-8
Codec ID                       : S_TEXT/UTF8
Codec ID/Info                  : UTF-8 Plain Text
Duration                       : 45 min 19 s
Bit rate                       : 28 b/s
Frame rate                     : 0.131 FPS
Count of elements              : 356
Stream size                    : 9.33 KiB (0%)
Title                          : 中文(简体)
Language                       : Chinese
Default                        : No
Forced                         : No
Text #3
ID                             : 5
Format                         : UTF-8
Codec ID                       : S_TEXT/UTF8
Codec ID/Info                  : UTF-8 Plain Text
Duration                       : 45 min 29 s
Bit rate                       : 29 b/s
Frame rate                     : 0.130 FPS
Count of elements              : 356
Stream size                    : 9.67 KiB (0%)
Title                          : 中文(繁體)
Language                       : Chinese
Default                        : No
Forced                         : No
复制代码




◎片  名 大秦帝国之纵横/ 大秦帝国2:纵横
◎译  名 Qin Empire S02
◎年  代 2013
◎产  地 中国大陆
◎类  别 剧情 / 历史 / 古装
◎语  言 汉语普通话
◎上映日期 2013-09-05(中国大陆)
◎豆瓣评分 9.1/10 from 22921 users
◎豆瓣链接 https://movie.douban.com/subject/4858790/
◎集  数 51
◎片  长 45分钟
◎导  演 丁黑 Ding Hei
◎编  剧 张建伟 Jianwei Zhang
◎主  演 宁静 Jing Ning
      富大龙 Dalong Fu
      傅淼 Miao Fu
      喻恩泰 Entai Yu
      杨新鸣 Xinming Yang
      李立群 Lichun Lee
      姚橹 Lu Yao
      杨志刚 Zhigang Yang
      赫子铭 Lanpeng He
      周波 Bo Zhou
      田小冰
      刘钊宏
      袁菲 Fei Yuan
      荆浩 Hao Jing
      张振华 Zhenhua Zhang
      孙霆
      蒋一铭 Yiming Jiang
      周征波 Zhengbo Zhou
      赵毅
      孙强
      高海成
      杨紫嫣 Ziyan Yang
      罗天佑
      战鹤文 Hewen Zhan
      丁嘉兰
      任正彬 Zheng-bin Ren
      王彩平 Caiping Wang
      张太龙
      彭志东
      孙飞虎 Feihu Sun
      贺云庆
      闫以昌
      刘辉
      张博 Bo Zhang
      王俊鹏
      王嘉浩
      雪菲
      闫沛
      王运生
      朱梓郡
      彭波 Bo Peng
      郑天庸 Tianyong Zheng
      张璇 Xuan Zhang
      魏华
      焦刚 Gang Jiao
      夏侯镔 Bin Xiahou
      成国栋 Guodong Cheng
      王大奇 Daqi Wang
      赵波
      马卫军 Weijun Ma
      刘畅
      廖东力
      王宁
      何勇生
      田小冰 Xiaobing Tian
      刘磊
      刘天佐 Tianzuo Liu
      黎明明 Mingming Li
      郭家铭 Jiaming Guo
      王笛 Di Wang
      陈昊 Hao Chen
      陈晓 Xiao Chen
      李保成 Baocheng Li
      朱军


◎标  签 大秦帝国 | 历史 | 历史剧 | 国产电视剧 | 大争之世 | 电视剧 | 战国 | 中国

◎简  介  

  东周列国,百年征伐,兼并挞伐,此消彼长。时至战国中期,七国并霸。曾经险遭灭国的秦国在商鞅变法之下迅速崛起,成为西北旷原最不可忽视的力量。在保守势力的逼迫下,年轻的秦惠文王嬴驷(富大龙 饰)被迫车裂商鞅,却也以消极的态度抑制保守一派。齐魏相王,雄心勃勃的秦惠文王在极其凶险的局势下登上国际舞台,同时铲除国内以甘龙为首的反对势力,为雄霸天下铺平了道路。国力衰退的魏惠王(李立群 饰)为遏制强邻的东进态势,任用苏秦的六国合纵之说以陷秦国于孤立。而秦国在不断蚕食周边之际,也启用张仪(喻恩泰 饰)提出连横的对策。豪杰贤士竞相登场,战国历史进入了最颠荡起伏的时代……
本片根据孙皓晖的同名历史小说的第二部改编。

◎获奖情况  

  第30届中国电视剧飞天奖(2015)
  飞天奖 历史题材优秀电视剧大奖

  第27届中国电视金鹰奖(2014)
  优秀电视剧(提名)
  最佳摄影奖

General
Unique ID                      : 68200876039331722087596979607682128992 (0x334F02CCF2B38597CEDD130F93479C60)
Complete name                  : E:\迅雷下载\Qin.Empire.Alliance.S02E01.1080p.NF.WEB-DL.AAC2.0.x264-PuTao.mkv
Format                         : Matroska
Format version                 : Version 4
File size                      : 1.62 GiB
Duration                       : 45 min 0 s
Overall bit rate mode          : Variable
Overall bit rate               : 5 149 kb/s
Encoded date                   : UTC 2021-12-31 07:58:31
Writing application            : mkvmerge v63.0.0 ('Everything') 64-bit
Writing library                : libebml v1.4.2 + libmatroska v1.6.4
Video
ID                             : 1
Format                         : AVC
Format/Info                    : Advanced Video Codec
Format profile                 : High@L4
Format settings                : CABAC / 4 Ref Frames
Format settings, CABAC         : Yes
Format settings, Reference fra : 4 frames
Codec ID                       : V_MPEG4/ISO/AVC
Duration                       : 45 min 0 s
Bit rate mode                  : Variable
Bit rate                       : 5 019 kb/s
Maximum bit rate               : 20.0 Mb/s
Width                          : 1 920 pixels
Height                         : 1 080 pixels
Display aspect ratio           : 16:9
Frame rate mode                : Constant
Frame rate                     : 25.000 FPS
Color space                    : YUV
Chroma subsampling             : 4:2:0
Bit depth                      : 8 bits
Scan type                      : Progressive
Bits/(Pixel*Frame)             : 0.097
Stream size                    : 1.58 GiB (97%)
Writing library                : x264 core 148 r2717 0d2410d
Encoding settings              : cabac=1 / ref=4 / deblock=1:0:0 / analyse=0x3:0x111 / me=umh / subme=10 / psy=1 / psy_rd=1.00:0.00 / mixed_ref=1 / me_range=120 / chroma_me=1 / trellis=2 / 8x8dct=1 / cqm=0 / deadzone=21,11 / fast_pskip=1 / chroma_qp_offset=-2 / threads=6 / lookahead_threads=1 / sliced_threads=0 / nr=0 / decimate=1 / interlaced=0 / bluray_compat=0 / stitchable=1 / constrained_intra=0 / bframes=16 / b_pyramid=2 / b_adapt=2 / b_bias=0 / direct=3 / weightb=1 / open_gop=0 / weightp=2 / keyint=250 / keyint_min=126 / scenecut=0 / intra_refresh=0 / rc_lookahead=250 / rc=crf / mbtree=1 / crf=22.0 / qcomp=0.50 / qpmin=6 / qpmax=51 / qpstep=4 / vbv_maxrate=20000 / vbv_bufsize=25000 / crf_max=0.0 / nal_hrd=vbr / filler=0 / ip_ratio=1.40 / aq=1:0.80
Default                        : Yes
Forced                         : No
Audio
ID                             : 2
Format                         : AAC LC SBR
Format/Info                    : Advanced Audio Codec Low Complexity with Spectral Band Replication
Commercial name                : HE-AAC
Format settings                : Explicit
Codec ID                       : A_AAC-2
Duration                       : 45 min 0 s
Bit rate                       : 128 kb/s
Channel(s)                     : 2 channels
Channel layout                 : L R
Sampling rate                  : 48.0 kHz
Frame rate                     : 23.438 FPS (2048 SPF)
Compression mode               : Lossy
Stream size                    : 41.2 MiB (2%)
Title                          : Chinese
Language                       : Chinese
Default                        : No
Forced                         : No
Text #1
ID                             : 3
Format                         : UTF-8
Codec ID                       : S_TEXT/UTF8
Codec ID/Info                  : UTF-8 Plain Text
Duration                       : 41 min 16 s
Bit rate                       : 39 b/s
Frame rate                     : 0.225 FPS
Count of elements              : 558
Stream size                    : 11.9 KiB (0%)
Title                          : Simplified Chinese
Language                       : Chinese
Default                        : No
Forced                         : No
Text #2
ID                             : 4
Format                         : UTF-8
Codec ID                       : S_TEXT/UTF8
Codec ID/Info                  : UTF-8 Plain Text
Duration                       : 41 min 16 s
Bit rate                       : 40 b/s
Frame rate                     : 0.225 FPS
Count of elements              : 558
Stream size                    : 12.1 KiB (0%)
Title                          : Traditional Chinese
Language                       : Chinese
Default                        : No
Forced                         : No
Text #3
ID                             : 5
Format                         : UTF-8
Codec ID                       : S_TEXT/UTF8
Codec ID/Info                  : UTF-8 Plain Text
Duration                       : 43 min 19 s
Bit rate                       : 60 b/s
Frame rate                     : 0.181 FPS
Count of elements              : 471
Stream size                    : 19.1 KiB (0%)
Title                          : English
Language                       : English
Default                        : No
Forced                         : No
Text #4
ID                             : 6
Format                         : UTF-8
Codec ID                       : S_TEXT/UTF8
Codec ID/Info                  : UTF-8 Plain Text
Duration                       : 43 min 19 s
Bit rate                       : 138 b/s
Frame rate                     : 0.180 FPS
Count of elements              : 468
Stream size                    : 44.0 KiB (0%)
Title                          : Thai
Language                       : Thai
Default                        : No
Forced                         : No

Text #5
ID                             : 7
Format                         : UTF-8
Codec ID                       : S_TEXT/UTF8
Codec ID/Info                  : UTF-8 Plain Text
Duration                       : 43 min 19 s
Bit rate                       : 69 b/s
Frame rate                     : 0.180 FPS
Count of elements              : 469
Stream size                    : 22.1 KiB (0%)
Title                          : Vietnamese
Language                       : Vietnamese
Default                        : No
Forced                         : No
复制代码



◎片  名 大秦帝国之崛起//大秦帝国3:崛起
◎译  名 The Qin Empire S03
◎年  代 2017
◎产  地 中国大陆
◎类  别 剧情 / 历史
◎语  言 汉语普通话
◎上映日期 2017-02-09(中国大陆)
◎IMDb评分  0/10 from 0 users
◎IMDb链接  https://www.imdb.com/title/tt5541592/
◎豆瓣评分 8.5/10 from 56170 users
◎豆瓣链接 https://movie.douban.com/subject/5923466/
◎集  数 40
◎片  长 45分钟
◎导  演 丁黑 Hei Ding
◎编  剧 张建伟 Jianwei Zhang / 孙皓晖 Haohui Sun / 钱洁蓉 Jierong Qian
◎主  演 宁静 Jing Ning
       张博 Bo Zhang
       富大龙 Dalong Fu
       邢佳栋 Jiadong Xing
       杨志刚 Zhigang Yang
       沈佳妮 Jiani Shen
       赵龙豪 Longhao Zhao
       吴连生 Liansheng Wu
       王小毅 Xiaoyi Wang
       王梓桐 Zitong Wang
       张译文 Yiwen Zhang
       宁露 Lu Ning
       王绘春 Huichun Wang
       霍青 Qing Huo
       陈晓 Xiao Chen
       傅淼 Miao Fu
       武雨泽 Yuze Wu
       张迪 Di Zhang
       王学兵 Xuebing Wang

◎简  介

  公元前305年,秦国历史上执政时间最长一位君王——秦昭襄王嬴稷继位。其后五十六年期间,秦王嬴稷在其母宣太后和其舅魏冉扶植下,从一个稚嫩年轻君王,成长为了一位坚毅沉着,威震天下真正王者;而秦国也由一个势力一般二流强国一跃崛成为傲视列国的超级大国。昭襄王在宣太后、纵横家范醀、“战神”白起协助下嬴稷采用“力交利交”“远交近攻”之国策,率领秦国子民先后灭义渠,修长城,重创齐国,攻陷楚国都城,迫魏韩两国俯首称臣并以极其惨烈战役。长平之战毁灭性地打击了当时剩下唯一大敌赵国,最后更一举消灭西周收纳九鼎!自此秦国雄傲中原无人能及,八十六年后嬴政统一中国之霸业也由此已经拉开序幕。

◎获奖情况

  第4届豆瓣电影年度榜单  (2017)
  评分最高的大陆电视剧集(提名)

[code]General
Unique ID                      : 102989955321221401022152820852984602365 (0x4D7B24D62248DEE063A1288550A35EFD)
Complete name                  : E:\迅雷下载\Qin.Empire.Alliance.S03E01.1080p.NF.WEB-DL.AAC2.0.x264-PuTao.mkv
Format                         : Matroska
Format version                 : Version 4
File size                      : 1.93 GiB
Duration                       : 45 min 1 s
Overall bit rate mode          : Variable
Overall bit rate               : 6 141 kb/s
Encoded date                   : UTC 2021-12-31 09:19:35
Writing application            : mkvmerge v63.0.0 ('Everything') 64-bit
Writing library                : libebml v1.4.2 + libmatroska v1.6.4
Video
ID                             : 1
Format                         : AVC
Format/Info                    : Advanced Video Codec
Format profile                 : High@L4
Format settings                : CABAC / 4 Ref Frames
Format settings, CABAC         : Yes
Format settings, Reference fra : 4 frames
Codec ID                       : V_MPEG4/ISO/AVC
Duration                       : 45 min 1 s
Bit rate mode                  : Variable
Bit rate                       : 6 011 kb/s
Maximum bit rate               : 20.0 Mb/s
Width                          : 1 920 pixels
Height                         : 1 080 pixels
Display aspect ratio           : 16:9
Frame rate mode                : Constant
Frame rate                     : 25.000 FPS
Color space                    : YUV
Chroma subsampling             : 4:2:0
Bit depth                      : 8 bits
Scan type                      : Progressive
Bits/(Pixel*Frame)             : 0.116
Stream size                    : 1.89 GiB (98%)
Writing library                : x264 core 148 r2727 7d026e8
Encoding settings              : cabac=1 / ref=4 / deblock=1:0:0 / analyse=0x3:0x111 / me=umh / subme=10 / psy=1 / psy_rd=1.00:0.00 / mixed_ref=1 / me_range=120 / chroma_me=1 / trellis=2 / 8x8dct=1 / cqm=0 / deadzone=21,11 / fast_pskip=1 / chroma_qp_offset=-2 / threads=6 / lookahead_threads=1 / sliced_threads=0 / nr=0 / decimate=1 / interlaced=0 / bluray_compat=0 / stitchable=1 / constrained_intra=0 / bframes=16 / b_pyramid=2 / b_adapt=2 / b_bias=0 / direct=3 / weightb=1 / open_gop=0 / weightp=2 / keyint=250 / keyint_min=126 / scenecut=0 / intra_refresh=0 / rc_lookahead=250 / rc=crf / mbtree=1 / crf=17.0 / qcomp=0.50 / qpmin=6 / qpmax=51 / qpstep=4 / vbv_maxrate=20000 / vbv_bufsize=25000 / crf_max=0.0 / nal_hrd=vbr / filler=0 / ip_ratio=1.40 / aq=1:0.80
Default                        : Yes
Forced                         : No
Audio
ID                             : 2
Format                         : AAC LC SBR
Format/Info                    : Advanced Audio Codec Low Complexity with Spectral Band Replication
Commercial name                : HE-AAC
Format settings                : Explicit
Codec ID                       : A_AAC-2
Duration                       : 45 min 1 s
Bit rate                       : 128 kb/s
Channel(s)                     : 2 channels
Channel layout                 : L R
Sampling rate                  : 48.0 kHz
Frame rate                     : 23.438 FPS (2048 SPF)
Compression mode               : Lossy
Stream size                    : 41.2 MiB (2%)
Title                          : Chinese
Language                       : Chinese
Default                        : No
Forced                         : No
Text #1
ID                             : 3
Format                         : UTF-8
Codec ID                       : S_TEXT/UTF8
Codec ID/Info                  : UTF-8 Plain Text
Duration                       : 43 min 13 s
Bit rate                       : 37 b/s
Frame rate                     : 0.221 FPS
Count of elements              : 573
Stream size                    : 11.7 KiB (0%)
Title                          : Simplified Chinese
Language                       : Chinese
Default                        : No
Forced                         : No
Text #2
ID                             : 4
Format                         : UTF-8
Codec ID                       : S_TEXT/UTF8
Codec ID/Info                  : UTF-8 Plain Text
Duration                       : 43 min 36 s
Bit rate                       : 37 b/s
Frame rate                     : 0.222 FPS
Count of elements              : 582
Stream size                    : 12.0 KiB (0%)
Title                          : Traditional Chinese
Language                       : Chinese
Default                        : No
Forced                         : No
Text #3
ID                             : 5
Format                         : UTF-8
Codec ID                       : S_TEXT/UTF8
Codec ID/Info                  : UTF-8 Plain Text
Duration                       : 43 min 36 s
Bit rate                       : 50 b/s
Frame rate                     : 0.211 FPS
Count of elements              : 553
Stream size                    : 16.0 KiB (0%)
Title                          : English
Language                       : English
Default                        : No
Forced                         : No
[code]



◎片  名 大秦赋 / 大秦帝国4:东出 / 大秦帝国之东出 / 大秦帝国之天下
◎译  名 The Qin Empire S04
◎年  代 2020
◎产  地 中国内地
◎类  别 历史 / 古装
◎语  言 汉语普通话
◎上映日期 2020-12-01(中国内地)
◎IMDb评分 5.2/10 from 24 users
◎IMDb链接 https://www.imdb.com/title/tt13551018
◎豆瓣评分 6.0/10 from 100647 users
◎豆瓣链接 https://movie.douban.com/subject/26413293
◎集  数 78
◎片  长 45分钟
◎导  演 延艺 Yi Yan / 顾其铭 Qiming Gu
◎编  剧 李梦 Meng Li
◎主  演 张鲁一 Luyi Zhang
       段奕宏 Yihong Duan
       李乃文 Naiwen Li
       朱珠 Zhu Zhu
       辛柏青 Baiqing Xin
       邬君梅 Vivian Wu
       尤勇智 Yongzhi You
       李洪涛 Hongtao Li
       王庆祥 Qingxiang Wang
       叶项明 Xiangming Ye
       刘冠麟 Guanlin Liu
       周铁 Tie Zhou
       朱悦 Yue Zhu
       苏茂洋 Maoyang Su
       陈秋果 Qiuguo Chen
       陈米麒 Yating Chen
◎标  签 大秦帝国 | 历史 | 国产历史剧 | 大秦 | 经典 | 战国 | 大争之世 | 大秦帝国之东出

◎简  介

  剧集讲述了秦始皇嬴政在吕不韦、李斯、王翦等的辅佐下平灭六国、一统天下,建立起中华历史上第一个大一统的中央集权国家的故事。
  战国晚期,纷乱五百余年的华夏大地仍战火不息、 生灵涂炭。彼时六国势弱、秦国独强,天下统一之势渐显。巨商吕不韦携时在赵国为质的嬴异人逃归秦国,幼小的始皇帝嬴政被弃留邯郸,屡遭生死劫难,也目睹战争带给百姓的痛苦与绝望,心中天下凝一之志由此而生。此后嬴政归秦,在咸阳政治漩涡中经历精神阵痛,蜕变成一个真正王者。为抓住一统天下的时机和力量,实现一统天下的理想抱负,精心谋划,暗中行动,终于平定嫪毐之乱,亲政,罢相,收复王权。此后又铲除宗室复辟势力,为东出灭国扫清障碍。在李斯、王翦、蒙恬等一般文臣武将的辅佐下扫灭六国,建立起中华历史上第一个大一统的中央集权国家。

[code]General
Unique ID                      : 32083472151639909372635638892940724853 (0x18230D4E2595814A9561FA1105978A75)
Complete name                  : E:\迅雷下载\Qin.Empire.Alliance.S04.2020.1080p.NF.WEB-DL.AAC2.0.x264-01.mkv
Format                         : Matroska
Format version                 : Version 4
File size                      : 1.91 GiB
Duration                       : 45 min 28 s
Overall bit rate mode          : Variable
Overall bit rate               : 5 998 kb/s
Encoded date                   : UTC 2021-03-31 09:18:36
Writing application            : mkvmerge v51.0.0 ('I Wish') 64-bit
Writing library                : libebml v1.4.0 + libmatroska v1.6.2
Video
ID                             : 1
Format                         : AVC
Format/Info                    : Advanced Video Codec
Format profile                 : Main@L4
Format settings                : CABAC / 3 Ref Frames
Format settings, CABAC         : Yes
Format settings, Reference fra : 3 frames
Codec ID                       : V_MPEG4/ISO/AVC
Duration                       : 45 min 28 s
Bit rate mode                  : Variable
Bit rate                       : 5 869 kb/s
Nominal bit rate               : 4 987 kb/s
Maximum bit rate               : 11.2 Mb/s
Width                          : 1 920 pixels
Height                         : 1 080 pixels
Display aspect ratio           : 16:9
Frame rate mode                : Constant
Frame rate                     : 25.000 FPS
Color space                    : YUV
Chroma subsampling             : 4:2:0
Bit depth                      : 8 bits
Scan type                      : Progressive
Bits/(Pixel*Frame)             : 0.113
Stream size                    : 1.86 GiB (98%)
Writing library                : x264 core 148 r2722 1b0121b
Encoding settings              : cabac=1 / ref=3 / deblock=1:0:0 / analyse=0x1:0x111 / me=umh / subme=10 / psy=1 / psy_rd=1.00:0.00 / mixed_ref=1 / me_range=24 / chroma_me=1 / trellis=2 / 8x8dct=0 / cqm=0 / deadzone=21,11 / fast_pskip=1 / chroma_qp_offset=-2 / threads=8 / lookahead_threads=1 / sliced_threads=0 / nr=0 / decimate=1 / interlaced=0 / bluray_compat=0 / stitchable=1 / constrained_intra=0 / bframes=2 / b_pyramid=0 / b_adapt=2 / b_bias=0 / direct=3 / weightb=1 / open_gop=0 / weightp=2 / keyint=250 / keyint_min=25 / scenecut=0 / intra_refresh=0 / rc_lookahead=50 / rc=2pass / mbtree=1 / bitrate=4987 / ratetol=1.0 / qcomp=0.50 / qpmin=6 / qpmax=51 / qpstep=4 / cplxblur=20.0 / qblur=0.5 / vbv_maxrate=11250 / vbv_bufsize=15000 / nal_hrd=vbr / filler=0 / ip_ratio=1.40 / aq=1:1.00
Default                        : Yes
Forced                         : No
Audio
ID                             : 2
Format                         : E-AC-3
Format/Info                    : Enhanced AC-3
Commercial name                : Dolby Digital Plus
Codec ID                       : A_EAC3
Duration                       : 45 min 28 s
Bit rate mode                  : Constant
Bit rate                       : 128 kb/s
Channel(s)                     : 2 channels
Channel layout                 : L R
Sampling rate                  : 48.0 kHz
Frame rate                     : 31.250 FPS (1536 SPF)
Compression mode               : Lossy
Stream size                    : 41.6 MiB (2%)
Title                          : Mandarin
Language                       : Chinese
Service kind                   : Complete Main
Default                        : No
Forced                         : No
Text
ID                             : 3
Format                         : UTF-8
Codec ID                       : S_TEXT/UTF8
Codec ID/Info                  : UTF-8 Plain Text
Duration                       : 41 min 17 s
Bit rate                       : 27 b/s
Frame rate                     : 0.159 FPS
Count of elements              : 395
Stream size                    : 8.38 KiB (0%)
Title                          : Chinese Traditional
Language                       : Chinese
Default                        : No
Forced                         : No
[code]


资源名:[大秦帝国四部曲.Netflix收藏版:裂变、纵横、崛起、东出(大秦赋)][2009-2018][国语.简繁英软字幕][全217集][MKV][418.45GB][1080p.NF.WEB-DL.AAC2.0.x264]

沙发: nicokfang
昵称:nicokfang
等级:
Lv.73 
经验
5510
金币
1340
积分
678
  发表于:2023-07-13 19:37
谢谢分享大秦帝国四部曲
板凳: y2kpost
昵称:圣耀天蓝
等级:
Lv.99 
经验
1.00万
金币
3783
积分
1564
  发表于:2023-07-13 19:38
谢谢分享谢谢分享
地板: gsy1314
昵称:一片石
等级:
Lv.109 
经验
1.22万
金币
1061
积分
1915
  发表于:2023-07-13 19:40
这部剧一定很贵吧
4楼 : hongqi
昵称:宏奇便利
等级:
Lv.151 
经验
2.31万
金币
1.07万
积分
2797
  发表于:2023-07-13 19:45
非常感谢楼主分享,顶一个。
5楼 : qwer911
昵称:Afakaie
等级:
Lv.6 
经验
45
金币
21
积分
14
  发表于:2023-07-13 20:02
谢谢楼主分享
82楼 : ch92911
昵称:执迷青春
等级:
Lv.89 
经验
8132
金币
1866
积分
211
  发表于:2024-06-03 17:36
谢谢分享谢谢分享
83楼 : whhcr
昵称:花开遍地
等级:
Lv.68 
经验
4951
金币
630
积分
774
  发表于:2024-06-03 18:19
谢谢楼主分享
84楼 : xz7776
昵称:xxx7776
等级:
Lv.9 
经验
102
金币
746
积分
22
  发表于:2024-06-03 20:14
是未删减版吗
85楼 : Fever
昵称:Fever1
等级:
Lv.31 
经验
1064
金币
98
积分
122
  发表于:2024-06-05 09:43
顶级水准,谢谢分享。
86楼 : yuliujia
昵称:修正
等级:
Lv.117 
经验
1.40万
金币
1871
积分
581
  发表于:2024-06-05 09:59
如果您需要查看本帖的资源内容请 回复
87楼 : yk2158838
昵称:帅帅中马哥
等级:
Lv.147 
经验
2.20万
金币
410
积分
1530
  发表于:2024-06-05 10:08
秦孝公渠梁广招天下贤能之士,天不亡秦
88楼 : sg886622
昵称:kankan@
等级:
Lv.59 
经验
3686
金币
1237
积分
579
  发表于:2024-06-05 10:08
谢谢楼主分享
89楼 : zlt510550
昵称:钟落潭
等级:
Lv.123 
经验
1.53万
金币
4977
积分
2402
  发表于:2024-06-05 10:27
谢谢楼主分享
90楼 : lxf913
昵称:lxf
等级:
Lv.34 
经验
1291
金币
57
积分
192
  发表于:2024-06-08 11:14
前三部是好剧,下来看看
91楼 : h20141003
昵称:haohao2014
等级:
Lv.75 
经验
5883
金币
324
积分
916
  发表于:2024-06-09 02:44
感谢楼主分享
92楼 : A386963
昵称:656284810
等级:
Lv.36 
经验
1406
金币
1.35万
积分
195
  发表于:2024-06-10 20:48
谢谢分享大秦帝国四部曲
93楼 : suyongjia
昵称:苏打009
等级:
Lv.7 
经验
75
金币
35
积分
18
  发表于:2024-06-11 10:35
很不错的资源
94楼 : flyreins
昵称:冷傲的化妆
等级:
Lv.16 
经验
286
金币
73
积分
47
  发表于:2024-06-11 22:52
这是好东西,感谢楼主分享
95楼 : sygkwlf
昵称:OLIF
等级:
Lv.104 
经验
1.11万
金币
159
积分
259
  发表于:2024-06-16 22:52
谢谢分享!谢谢分享!
96楼 : li1233123
昵称:gexinghuahu
等级:
Lv.92 
经验
8790
金币
1974
积分
1364
  发表于:2024-06-16 22:56
感谢楼主分享好资源
快速回帖