版主: biosky
昵称:胖头鸟
等级:
Lv.102 
经验
1.07万
金币
25.72万
积分
1178
 发表于 2023-04-27 07:23  查看 5832 | 倒序浏览 |  下载地址
满清十大酷刑
导演林子皓
编剧卓冰 / 徐达初
主演吴启华 / 翁虹 / 徐锦江 / 黄光亮 / 苑琼丹 / 更多...
类型: 情色
制片国家/地区: 中国香港
语言: 粤语
上映日期: 1994-05-19(中国香港)
片长: 88分钟
又名: Chinese Torture Chamber Story / On-screen literal translation: 10 Most Severe Punishments in Ching Dynasty
IMDb: tt0113757

File size                      : 9.54 GiB
Duration                       : 1 h 33 min
Overall bit rate               : 14.7 Mb/s

Video
ID                             : 1
Format                         : AVC
Format/Info                    : Advanced Video Codec
Format profile                 : High@L5.1
Format settings                : CABAC / 8 Ref Frames
Format settings, CABAC         : Yes
Format settings, Reference fra : 8 frames
Codec ID                       : V_MPEG4/ISO/AVC
Duration                       : 1 h 32 min
Bit rate                       : 14.3 Mb/s
Width                          : 1 920 pixels
Height                         : 1 080 pixels
Display aspect ratio           : 16:9
Frame rate mode                : Constant
Frame rate                     : 23.976 (24000/1001) FPS
Color space                    : YUV
Chroma subsampling             : 4:2:0
Bit depth                      : 8 bits
Scan type                      : Progressive
Bits/(Pixel*Frame)             : 0.287
Stream size                    : 9.27 GiB (97%)

Language                       : Chinese
Default                        : Yes
Forced                         : Yes
Color range                    : Limited
Color primaries                : BT.709
Transfer characteristics       : BT.709
Matrix coefficients            : BT.709

Audio #1
ID                             : 2
Format                         : AC-3
Format/Info                    : Audio Coding 3
Commercial name                : Dolby Digital
Codec ID                       : A_AC3
Duration                       : 1 h 33 min
Bit rate mode                  : Constant
Bit rate                       : 192 kb/s
Channel(s)                     : 2 channels
Channel layout                 : L R
Sampling rate                  : 48.0 kHz
Frame rate                     : 31.250 FPS (1536 SPF)
Compression mode               : Lossy
Stream size                    : 128 MiB (1%)
Title                          : 粤语
Language                       : Chinese
Service kind                   : Complete Main
Default                        : Yes
Forced                         : Yes

Audio #2
ID                             : 3
Format                         : AC-3
Format/Info                    : Audio Coding 3
Commercial name                : Dolby Digital
Codec ID                       : A_AC3
Duration                       : 1 h 32 min
Bit rate mode                  : Constant
Bit rate                       : 192 kb/s
Channel(s)                     : 2 channels
Channel layout                 : L R
Sampling rate                  : 48.0 kHz
Frame rate                     : 31.250 FPS (1536 SPF)
Compression mode               : Lossy
Delay relative to video        : 2 s 600 ms
Stream size                    : 128 MiB (1%)
Title                          : 国语
Language                       : Chinese
Service kind                   : Complete Main
Default                        : No
Forced                         : No

Text
ID                             : 4
Format                         : ASS
Codec ID                       : S_TEXT/ASS
Codec ID/Info                  : Advanced Sub Station Alpha
Duration                       : 1 h 30 min
Bit rate                       : 80 b/s
Count of elements              : 1020
Compression mode               : Lossless
Stream size                    : 53.7 KiB (0%)
Title                          : ASS中简
Language                       : Chinese
Default                        : Yes
Forced                         : Yes


满清十大酷刑的剧情简介 · · · · · ·

沙发: joeyfzero
昵称:金山丈
等级:
Lv.140 
经验
2.00万
金币
5160
积分
3104
  发表于:2023-04-27 08:16
感谢楼主分享
 评论区:Posted @ 2023-04-27 08:16:17 金山丈   全部评论(2)
 1# 
Kodiak 于 2024-03-20 16:40 评论说:  回复  举报
内容涉及违规,已被系统屏蔽!
 2# 
Kodiak 于 2024-03-20 16:41 评论说:  回复  举报
内容涉及违规,已被系统屏蔽!
板凳:  zhangyl
昵称:疯狂的龙哥
等级:
Lv.103 超级
经验
1.08万
金币
900
积分
1660
  发表于:2023-04-27 08:17
感谢楼主的分享!
地板: nqslsjs
昵称:nqslsjs
等级:
Lv.53 
经验
2979
金币
727
积分
302
  发表于:2023-04-27 08:22
谢谢分享满清十大酷刑
91楼 : wwwwqw
昵称:wwwwqw
等级:
Lv.5 
经验
35
金币
17
积分
12
  发表于:2024-06-02 06:29
多谢分享,希望还能下

92楼 : ds138168
昵称:猫猫哥
等级:
Lv.74 
经验
5634
金币
280
积分
862
  发表于:2024-06-02 06:40
开通VIP全站资源免金币免回复快速下载!
93楼 : nyny1
昵称:一方
等级:
Lv.63 
经验
4198
金币
46
积分
601
  发表于:2024-06-02 09:30
难得,感谢分享
94楼 : police789
昵称:飘飘不知
等级:
Lv.98 
经验
9932
金币
280
积分
1529
  发表于:2024-06-02 09:33
感谢楼主分享!
95楼 : ZFHB92
昵称:zfhb92
等级:
Lv.40 
经验
1691
金币
49
积分
232
  发表于:2024-06-02 09:34
谢谢楼主分享!
96楼 : HH200707
昵称:hanhai
等级:
Lv.28 
经验
874
金币
246
积分
106
  发表于:2024-06-03 08:34
谢谢楼主分享!
97楼 : Aa147369
昵称:136Aa
等级:
Lv.14 
经验
236
金币
1062
积分
124
  发表于:2024-06-08 14:49
谢谢分享满清十大酷刑
98楼 : lynliu
昵称:lynning
等级:
Lv.5 
经验
40
金币
19
积分
13
  发表于:2024-06-10 15:01
感谢楼主分享
99楼 : wzhnr
昵称:仅有的执着
等级:
Lv.73 
经验
5618
金币
1612
积分
840
  发表于:2024-06-10 15:02
感谢楼主分享
100楼 : Chi1978
昵称:Chenchi
等级:
Lv.146 
经验
2.18万
金币
483
积分
259
  发表于:2024-06-10 15:05
感谢楼主的分享!
101楼 : qq3432863
昵称:风中的琥珀
等级:
Lv.5 
经验
35
金币
17
积分
12
  发表于:2024-06-19 19:34
感谢感谢分享1111
102楼 : zwh661188
昵称:aa666111888
等级:
Lv.5 
经验
40
金币
19
积分
13
  发表于:2024-06-21 01:32
感谢风向分享
103楼 : wubin921
昵称:adadadaq
等级:
Lv.5 
经验
35
金币
17
积分
12
  发表于:2024-06-21 12:12
按键爱就爱啊空间去 啊
104楼 :  huxiao222
昵称:洪泽老大
等级:
Lv.6 至尊
经验
55
金币
27
积分
14
  发表于:2024-06-21 12:23
十分感谢楼主分享!
105楼 : Cqf224273
昵称:阿米诺斯123
等级:
Lv.5 
经验
35
金币
17
积分
12
  发表于:2024-06-22 12:22
666牛逼牛逼 感谢
106楼 : long13633
昵称:青稚
等级:
Lv.5 
经验
35
金币
17
积分
12
  发表于:2024-06-22 16:56
老电影很好,找了好久找到了
107楼 : HANBAO
昵称:憨人福报
等级:
Lv.83 
经验
7053
金币
2137
积分
970
  发表于:2024-06-22 16:57
感谢楼主分享                                        
快速回帖